<?xml version="1.0" encoding="UTF-8" standalone="no"?>
<!-- Creator: CorelDRAW X8 -->

<svg
   xml:space="preserve"
   width="44.027mm"
   height="44.027mm"
   version="1.1"
   style="clip-rule:evenodd;fill-rule:evenodd;image-rendering:optimizeQuality;shape-rendering:geometricPrecision;text-rendering:geometricPrecision"
   viewBox="0 0 3765.4774 3765.0258"
   id="svg63"
   sodipodi:docname="Logo-INT.svg"
   inkscape:version="1.2.2 (732a01da63, 2022-12-09)"
   xmlns:inkscape="http://www.inkscape.org/namespaces/inkscape"
   xmlns:sodipodi="http://sodipodi.sourceforge.net/DTD/sodipodi-0.dtd"
   xmlns="http://www.w3.org/2000/svg"
   xmlns:svg="http://www.w3.org/2000/svg"><sodipodi:namedview
   id="namedview65"
   pagecolor="#ffffff"
   bordercolor="#000000"
   borderopacity="0.25"
   inkscape:showpageshadow="2"
   inkscape:pageopacity="0.0"
   inkscape:pagecheckerboard="0"
   inkscape:deskcolor="#d1d1d1"
   inkscape:document-units="mm"
   showgrid="false"
   inkscape:zoom="2.8030456"
   inkscape:cx="206.73941"
   inkscape:cy="83.123871"
   inkscape:window-width="2560"
   inkscape:window-height="1369"
   inkscape:window-x="-8"
   inkscape:window-y="-8"
   inkscape:window-maximized="1"
   inkscape:current-layer="Ebene_x0020_1" />
 <defs
   id="defs51"><font
     id="FontID0"
     horiz-adv-x="667"
     font-variant="normal"
     style="fill-rule:nonzero"
     font-style="normal"
     font-weight="400"
     horiz-origin-x="0"
     horiz-origin-y="0"
     vert-origin-x="512"
     vert-origin-y="768"
     vert-adv-y="1024">
	<font-face
   font-family="Arial"
   id="font-face2">
		<font-face-src>
			<font-face-name
   name="Arial" />
		</font-face-src>
	</font-face>
   <missing-glyph
   id="missing-glyph6"><path
     d="M0 0z"
     id="path4" /></missing-glyph>
   <glyph
   unicode="f"
   horiz-adv-x="277"
   d="M87.0043 0l0 451.004 -78.0048 0 0 67.9899 78.0048 0 0 55.0123c0,34.8295 2.99056,60.6596 9.1664,77.4902 8.49874,22.6726 23.1594,41.1723 44.4967,55.3322 21.1704,14.1738 50.9924,21.1704 89.3272,21.1704 24.8425,0 52.1748,-3.00446 82.1777,-8.83257l-13.1724 -77.0033c-18.3328,3.17138 -35.4972,4.84053 -51.827,4.84053 -26.6785,0 -45.5121,-5.6751 -56.6675,-16.9975 -11.0025,-11.3363 -16.5106,-32.5066 -16.5106,-63.5111l0 -47.5011 101.011 0 0 -67.9899 -100.01 0 0 -451.004 -87.9919 0z"
   id="glyph8" />
   <glyph
   unicode="c"
   horiz-adv-x="500"
   d="M405.005 190.005l85.9889 -12.004c-9.50023,-59.1713 -33.4942,-105.337 -72.3297,-138.831 -38.8355,-33.5081 -86.6705,-50.1718 -143.157,-50.1718 -70.8414,0 -127.843,23.1733 -170.837,69.5061 -43.1753,46.3327 -64.6655,112.667 -64.6655,198.99 0,55.9999 9.33331,104.836 27.833,146.843 18.4997,41.826 46.6666,73.3312 84.6675,94.1677 37.834,20.9895 78.9924,31.4912 123.656,31.4912 56.1668,0 102.347,-14.1599 138.011,-42.6606 35.831,-28.5007 58.8235,-69.0053 68.8245,-121.333l-85.0013 -13.0054c-8.16491,34.8434 -22.4918,61.0073 -43.3283,78.6725 -20.6696,17.4982 -45.6651,26.3308 -75.0003,26.3308 -44.3298,0 -80.3277,-15.8291 -108.161,-47.5011 -27.6661,-31.839 -41.5061,-81.8299 -41.5061,-150.501 0,-69.6591 13.3393,-120.165 40.0039,-151.67 26.8315,-31.4912 61.6611,-47.3342 104.503,-47.3342 34.6626,0 63.4971,10.5017 86.4896,31.6721 23.1733,21.0034 37.834,53.4962 44.0098,97.3391z"
   id="glyph10" />
   <glyph
   unicode="t"
   horiz-adv-x="277"
   d="M257.007 78.5056l11.99 -77.671c-24.6616,-5.17436 -46.8335,-7.83108 -66.1678,-7.83108 -31.8251,0 -56.5006,4.99353 -74.1658,15.1614 -17.4982,10.1679 -29.836,23.3402 -36.9994,39.837 -7.16342,16.4967 -10.6686,51.1594 -10.6686,104.002l0 299 -64.9994 0 0 67.9899 64.9994 0 0 128.344 88.0058 52.8285 0 -181.172 88.0058 0 0 -67.9899 -88.0058 0 0 -304.007c0,-25.1624 1.50223,-41.3253 4.6597,-48.5026 3.00446,-7.16342 8.01191,-12.8246 15.0084,-17.1644 6.99651,-4.15896 16.9975,-6.32885 30.0029,-6.32885 9.66714,0 22.4918,1.1684 38.3347,3.50521z"
   id="glyph12" />
   <glyph
   unicode="O"
   horiz-adv-x="777"
   d="M48.0019 348.504c0,118.662 31.992,211.662 95.8369,278.831 63.831,67.1693 146.162,100.663 247.159,100.663 66.1678,0 125.673,-15.8291 178.835,-47.3342 52.9954,-31.4912 93.5001,-75.5011 121.333,-132.002 27.833,-56.3337 41.84,-120.332 41.84,-191.827 0,-72.4966 -14.6746,-137.496 -44.0098,-194.664 -29.3353,-57.3352 -70.8275,-100.677 -124.491,-129.999 -53.8439,-29.5022 -111.833,-44.1768 -174.009,-44.1768 -67.5031,0 -127.662,16.3437 -180.824,48.8365 -53.0093,32.5066 -93.3331,76.8364 -120.679,133.17 -27.3323,56.1668 -40.9915,115.658 -40.9915,178.501zm97.9929 -1.66915c0,-86.1697 23.1733,-154.007 69.5061,-203.497 46.3327,-49.5041 104.503,-74.3327 174.495,-74.3327 71.3421,0 129.832,24.9955 175.998,75.0003 46.0128,49.991 69.0053,120.999 69.0053,212.997 0,58.1698 -9.83406,108.995 -29.5022,152.338 -19.6681,43.3283 -48.5026,76.9894 -86.3366,100.83 -37.987,23.8271 -80.4946,35.831 -127.662,35.831 -67.0024,0 -124.671,-23.0064 -172.993,-69.0053 -48.3357,-45.9989 -72.5105,-122.668 -72.5105,-230.161z"
   id="glyph14" />
   <glyph
   unicode="n"
   horiz-adv-x="556"
   d="M66.0009 0l0 518.994 78.9924 0 0 -73.665c38.0009,56.5006 93.0132,84.6675 164.842,84.6675 31.3243,0 59.9919,-5.66119 86.1697,-16.8306 26.1639,-11.1694 45.832,-25.997 58.8235,-44.1629 13.0054,-18.1659 22.1718,-39.837 27.3323,-64.8325 3.17138,-16.3298 4.84053,-44.8305 4.84053,-85.5021l0 -318.668 -88.0058 0 0 315.33c0,35.831 -3.32438,62.6765 -10.1679,80.3416 -6.82959,17.6651 -19.0005,31.8251 -36.3318,42.4937 -17.3313,10.5017 -37.834,15.8291 -61.1603,15.8291 -37.3333,0 -69.5061,-11.8231 -96.6714,-35.6641 -27.1654,-23.6602 -40.6576,-68.8245 -40.6576,-135.159l0 -283.171 -88.0058 0z"
   id="glyph16" />
   <glyph
   unicode="I"
   horiz-adv-x="277"
   d="M92.9993 0l0 715.995 95.0023 0 0 -715.995 -95.0023 0z"
   id="glyph18" />
   <glyph
   unicode="C"
   horiz-adv-x="722"
   d="M586.997 251.165l95.0023 -23.994c-19.835,-77.8379 -55.4991,-137.009 -107.006,-177.834 -51.4932,-40.8385 -114.49,-61.3412 -188.989,-61.3412 -77.0033,0 -139.666,15.6761 -188.002,47.1673 -48.3357,31.3382 -85.0013,76.8364 -110.164,136.342 -25.1763,59.6581 -37.834,123.489 -37.834,191.827 0,74.4996 14.1599,139.499 42.6606,194.998 28.5007,55.4991 69.0053,97.6729 121.5,126.507 52.4947,28.8345 110.331,43.1614 173.341,43.1614 71.6621,0 131.821,-18.1659 180.49,-54.6646 48.8365,-36.4987 82.8314,-87.672 101.999,-153.673l-92.9993 -21.991c-16.4967,51.9939 -40.6576,89.9949 -72.1628,113.669 -31.5052,23.8271 -71.1613,35.6641 -118.996,35.6641 -54.8315,0 -100.83,-13.1724 -137.677,-39.5032 -36.8325,-26.3308 -62.8295,-61.828 -77.6571,-106.172 -15.0084,-44.4967 -22.5057,-90.3287 -22.5057,-137.496 0,-60.8265 8.83257,-114.003 26.4977,-159.334 17.6651,-45.4982 45.1643,-79.3262 82.5115,-101.832 37.3333,-22.5057 77.6571,-33.6611 121.166,-33.6611 52.9954,0 97.659,15.3283 134.325,45.832 36.6656,30.6567 61.5081,76.0018 74.4996,136.328z"
   id="glyph20" />
   <glyph
   unicode="e"
   horiz-adv-x="556"
   d="M419.999 168l90.9963 -12.004c-14.1599,-52.8285 -40.6576,-94.0008 -79.3262,-123.169 -38.6686,-29.1544 -88.0058,-43.829 -148.165,-43.829 -75.668,0 -135.674,23.3402 -180.004,70.0068 -44.3298,46.4997 -66.5016,112 -66.5016,196.167 0,86.9904 22.3388,154.66 67.1693,202.662 44.8305,48.1688 103,72.1628 174.495,72.1628 69.1722,0 125.673,-23.4932 169.502,-70.6606 43.829,-47.1673 65.8339,-113.502 65.8339,-199.004 0,-5.16045 -0.166915,-12.9915 -0.500744,-23.3263l-386.505 0c3.33829,-56.8345 19.3343,-100.51 48.3357,-130.666 28.8345,-30.1698 64.9994,-45.3452 108.175,-45.3452 32.1589,0 59.6581,8.51265 82.3307,25.5101 22.8256,16.9975 40.8246,44.1629 54.1638,81.4961zm-287.997 141.001l288.999 0c-3.83904,43.6621 -14.9945,76.3357 -33.1604,98.1598 -27.8469,33.842 -64.1787,50.8394 -108.675,50.8394 -40.3377,0 -74.1658,-13.5062 -101.665,-40.5046 -27.3323,-26.9985 -42.4937,-63.1633 -45.4982,-108.495z"
   id="glyph22" />
   <glyph
   unicode="s"
   horiz-adv-x="500"
   d="M31.0044 154.994l86.9904 14.0069c4.84053,-34.8295 18.4997,-61.5081 40.8385,-80.1747 22.3388,-18.4997 53.6631,-27.833 93.667,-27.833 40.5046,0 70.4937,8.17882 90.1618,24.6756 19.5012,16.3298 29.3353,35.6641 29.3353,57.836 0,19.835 -8.83257,35.4972 -26.3308,46.8335 -12.3378,7.83108 -42.3268,17.6651 -89.9949,29.8221 -64.3317,16.1768 -108.842,30.1698 -133.838,42.0069 -24.8286,12.004 -43.6621,28.3338 -56.5006,49.3372 -12.8385,20.8226 -19.3343,43.9959 -19.3343,69.3252 0,23.1733 5.34127,44.4967 15.8291,64.1648 10.6686,19.6681 25.0094,36.0119 43.1753,49.0034 13.6592,10.001 32.3258,18.4997 55.833,25.4962 23.6602,7.01042 48.8365,10.5017 75.8349,10.5017 40.6576,0 76.3357,-5.82811 106.992,-17.6651 30.8375,-11.6701 53.5101,-27.6661 68.1708,-47.6681 14.4938,-20.1689 24.6616,-47.0004 30.1698,-80.6615l-86.0028 -12.004c-3.83904,26.9985 -15.1614,48.1688 -33.8281,63.3302 -18.6666,15.1753 -45.0113,22.6726 -79.1732,22.6726 -40.1708,0 -69.0053,-6.66268 -86.1697,-20.0019 -17.1644,-13.3254 -25.8301,-29.0014 -25.8301,-46.8335 0,-11.3363 3.50521,-21.6711 10.6686,-30.8375 7.16342,-9.33331 18.3328,-17.1644 33.6611,-23.3263 8.83257,-3.33829 34.5096,-10.8355 77.5041,-22.5057 61.9949,-16.4967 105.337,-30.1559 129.999,-40.6576 24.6616,-10.5017 43.9959,-26.0109 58.0029,-45.9989 14.1599,-20.1689 21.1704,-45.1783 21.1704,-75.1673 0,-29.1683 -8.51265,-56.6675 -25.677,-82.5115 -17.1644,-25.8301 -41.826,-45.832 -73.9989,-59.9919 -32.3258,-14.1738 -68.8245,-21.1704 -109.496,-21.1704 -67.3362,0 -118.829,14.0069 -154.174,41.84 -35.3303,27.9999 -57.822,69.3252 -67.6561,124.157z"
   id="glyph24" />
   <glyph
   unicode="p"
   horiz-adv-x="556"
   d="M66.0009 -199.004l0 717.998 79.9939 0 0 -68.1568c18.8335,26.3308 40.1708,46.1658 64.0118,59.3243 23.6602,13.1724 52.4947,19.835 86.3227,19.835 44.3437,0 83.3322,-11.3224 117.174,-34.1619 33.8281,-22.6726 59.3243,-54.8315 76.6695,-96.1707 17.1644,-41.4922 25.8301,-86.8235 25.8301,-136.328 0,-52.8424 -9.50023,-100.497 -28.5007,-143.004 -19.0005,-42.3268 -46.6666,-74.8334 -82.9983,-97.4921 -36.1649,-22.5057 -74.3327,-33.842 -114.337,-33.842 -29.3353,0 -55.6661,6.17584 -78.8394,18.4997 -23.3263,12.3378 -42.3268,27.833 -57.3213,46.6666l0 -253.168 -88.0058 0zm79.9939 455.343c0,-66.5016 13.5062,-115.672 40.3377,-147.511 26.9985,-31.8251 59.672,-47.835 98.0068,-47.835 38.9885,0 72.3297,16.5106 99.9958,49.5041 27.833,33.0074 41.6591,83.9998 41.6591,153.172 0,66.0009 -13.4923,115.324 -40.6576,148.165 -27.1654,32.8266 -59.5051,49.1703 -97.1722,49.1703 -37.3333,0 -70.3267,-17.4982 -98.9943,-52.3417 -28.8345,-34.9965 -43.1753,-85.669 -43.1753,-152.324z"
   id="glyph26" />
   <glyph
   unicode="m"
   horiz-adv-x="833"
   d="M66.0009 0l0 518.994 78.9924 0 0 -73.3312c16.1768,25.3432 37.834,45.832 64.8464,61.1742 26.9985,15.4952 57.6551,23.1594 92.1647,23.1594 38.3347,0 69.826,-7.998 94.3346,-23.8271 24.4947,-15.996 41.826,-38.1678 51.827,-66.8354 41.3392,60.5066 94.8354,90.6625 160.836,90.6625 51.6601,0 91.4971,-14.1599 119.163,-42.6606 27.833,-28.5007 41.84,-72.3297 41.84,-131.501l0 -355.834 -88.0058 0 0 326.666c0,34.9965 -3.00446,60.3397 -8.66566,75.8349 -5.66119,15.4952 -15.996,27.833 -31.1713,37.3333 -14.9945,9.50023 -32.6596,14.1599 -52.8285,14.1599 -36.6656,0 -67.0024,-12.157 -91.1633,-36.3318 -24.1748,-24.3278 -36.1649,-63.1633 -36.1649,-116.493l0 -301.17 -88.0058 0 0 336.834c0,39.0024 -7.16342,68.3377 -21.5042,87.8389 -14.3268,19.4873 -37.834,29.3214 -70.3267,29.3214 -24.6756,0 -47.5011,-6.49576 -68.5046,-19.4873 -21.0034,-13.0054 -36.1649,-32.0059 -45.6651,-57.1683 -9.33331,-25.0094 -13.993,-61.1742 -13.993,-108.342l0 -268.997 -88.0058 0z"
   id="glyph28" />
   <glyph
   unicode="E"
   horiz-adv-x="667"
   d="M79.0063 0l0 715.995 516.991 0 0 -83.9998 -422.002 0 0 -219.994 395.004 0 0 -83.9998 -395.004 0 0 -244.002 439 0 0 -83.9998 -533.988 0z"
   id="glyph30" />
   <glyph
   unicode="d"
   horiz-adv-x="556"
   d="M400.999 0l0 65.8339c-32.8266,-51.1733 -81.1623,-76.8364 -144.993,-76.8364 -41.3392,0 -79.3401,11.3363 -113.836,34.1758 -34.6765,22.6587 -61.5081,54.4977 -80.6754,95.1553 -19.0005,40.8385 -28.5007,87.672 -28.5007,140.667 0,51.674 8.67957,98.5075 25.844,140.667 17.3313,42.0069 43.1614,74.3327 77.6571,96.6714 34.3427,22.4918 73.0113,33.6611 115.505,33.6611 31.3382,0 59.1713,-6.66268 83.4991,-19.835 24.3278,-13.1584 44.1629,-30.4898 59.5051,-51.6601l0 257.494 87.9919 0 0 -715.995 -81.9969 0zm-277.996 258.829c0,-66.3347 13.993,-115.825 42.1599,-148.665 27.9999,-32.8266 61.1742,-49.1703 99.3421,-49.1703 38.5017,0 71.1613,15.6761 98.1598,47.0004 26.8315,31.3382 40.3377,79.1732 40.3377,143.505 0,70.6745 -13.6731,122.668 -41.1723,155.829 -27.3323,33.1743 -61.1603,49.671 -101.331,49.671 -39.1693,0 -71.829,-15.8291 -98.1598,-47.6681 -26.1778,-31.8251 -39.3362,-81.9969 -39.3362,-150.501z"
   id="glyph32" />
   <glyph
   unicode=" "
   horiz-adv-x="277"
   d=""
   id="glyph34" />
   <glyph
   unicode="u"
   horiz-adv-x="556"
   d="M405.005 0l0 77.1702c-40.3377,-58.8374 -95.0023,-88.1727 -164.175,-88.1727 -30.5037,0 -58.9904,5.84202 -85.5021,17.4982 -26.4977,11.837 -46.1658,26.4977 -58.9904,44.1768 -12.8385,17.8321 -21.838,39.4892 -26.9985,65.1663 -3.50521,17.3313 -5.34127,44.6636 -5.34127,81.9969l0 321.158 88.0058 0 0 -287.163c0,-45.832 1.83606,-76.8364 5.32736,-92.6655 5.50819,-23.1594 17.1644,-41.1584 35.1634,-54.3307 17.8321,-13.1724 39.837,-19.835 66.1678,-19.835 26.3447,0 51.0064,6.66268 73.9989,20.1689 23.0064,13.4923 39.3362,31.992 49.0034,55.1653 9.50023,23.1733 14.3408,57.0014 14.3408,101.164l0 277.496 87.9919 0 0 -518.994 -78.9924 0z"
   id="glyph36" />
   <glyph
   unicode="a"
   horiz-adv-x="556"
   d="M405.005 64.9994c-32.6736,-27.833 -64.1648,-47.3342 -94.3346,-58.8374 -30.1698,-11.4893 -62.5096,-17.1644 -97.1722,-17.1644 -57.0014,0 -100.83,13.84 -131.501,41.673 -30.6567,27.6661 -45.9989,63.1633 -45.9989,106.325 0,25.3432 5.84202,48.5026 17.3313,69.5061 11.6701,21.0034 26.8315,37.6671 45.4982,50.3387 18.8335,12.6577 39.837,22.3248 63.3441,28.8206 17.3313,4.5067 43.4952,8.83257 78.3247,13.1724 71.0083,8.33183 123.503,18.4997 156.997,30.1698 0.333829,12.004 0.500744,19.6681 0.500744,22.8256 0,35.678 -8.33183,60.8404 -24.9955,75.5011 -22.5057,19.835 -55.9999,29.6691 -100.33,29.6691 -41.5061,0 -72.1628,-7.33034 -91.8309,-21.838 -19.835,-14.4938 -34.3427,-40.1569 -43.8429,-77.1563l-85.9889 11.99c7.83108,36.8325 20.6557,66.6685 38.6547,89.3411 17.999,22.6587 44.0098,40.0039 78.0048,52.3278 33.8281,12.1709 73.3312,18.3328 117.995,18.3328 44.3437,0 80.5085,-5.16045 108.342,-15.6622 27.6661,-10.5017 48.1688,-23.5072 61.1603,-39.3362 13.0054,-15.8291 22.1718,-35.831 27.4992,-59.9919 2.83755,-15.0084 4.33978,-42.0069 4.33978,-80.8424l0 -116.659c0,-81.51 1.83606,-133.003 5.49428,-154.841 3.50521,-21.8241 10.8355,-42.6606 21.5042,-62.6626l-91.9978 0c-8.83257,18.4997 -14.5077,40.1708 -16.9975,64.9994zm-7.01042 194.998c-31.992,-12.9915 -79.9939,-23.994 -143.992,-32.9935 -36.3318,-5.17436 -62.0088,-11.0025 -77.0033,-17.4982 -14.9945,-6.50967 -26.4977,-16.0099 -34.6626,-28.3338 -8.16491,-12.5047 -12.3378,-26.3447 -12.3378,-41.673 0,-23.1594 8.83257,-42.6606 26.6646,-58.1698 17.8321,-15.4952 43.8429,-23.3263 78.0048,-23.3263 33.8281,0 63.9979,7.33034 90.4956,22.1579 26.3308,14.6746 45.832,34.8434 58.1698,60.3397 9.50023,19.835 14.1599,49.0034 14.1599,87.505l0.500744 31.992z"
   id="glyph38" />
   <glyph
   unicode="r"
   horiz-adv-x="332"
   d="M64.9994 0l0 518.994 79.0063 0 0 -79.4931c20.155,36.8325 38.8216,61.1603 55.9999,72.8305 17.1644,11.837 35.9979,17.6651 56.5006,17.6651 29.6552,0 59.825,-9.33331 90.4956,-27.833l-31.3382 -81.1623c-21.3234,12.004 -42.6606,17.999 -63.9979,17.999 -19.1674,0 -36.3318,-5.82811 -51.4932,-17.3313 -15.1753,-11.5032 -26.0109,-27.4992 -32.5066,-48.0019 -9.83406,-31.1713 -14.6607,-65.3332 -14.6607,-102.5l0 -271.167 -88.0058 0z"
   id="glyph40" />
   <glyph
   unicode="o"
   horiz-adv-x="556"
   d="M32.9935 259.497c0,95.8369 26.6785,166.831 80.1747,212.997 44.4967,38.3347 98.9943,57.5021 163.159,57.5021 71.1752,0 129.512,-23.3263 174.843,-69.9929 45.1643,-46.4997 67.823,-110.998 67.823,-193.176 0,-66.6546 -9.98706,-118.996 -29.989,-157.164 -20.0019,-38.1678 -49.1703,-67.823 -87.505,-88.9934 -38.1678,-21.1704 -79.9939,-31.6721 -125.172,-31.6721 -72.6635,0 -131.334,23.1733 -176.165,69.673 -44.8305,46.4997 -67.1693,113.502 -67.1693,200.826zm90.0088 -0.166915c0,-66.3347 14.4938,-115.992 43.4952,-148.832 29.1683,-32.9935 65.667,-49.5041 109.83,-49.5041 43.676,0 80.0078,16.5106 109.176,49.671 29.0014,33.1743 43.4952,83.666 43.4952,151.503 0,63.9979 -14.6607,112.501 -43.829,145.327 -29.1683,33.0074 -65.5001,49.5041 -108.842,49.5041 -44.1629,0 -80.6615,-16.3298 -109.83,-49.1703 -29.0014,-32.8266 -43.4952,-82.3307 -43.4952,-148.498z"
   id="glyph42" />
   <glyph
   unicode="l"
   horiz-adv-x="222"
   d="M63.9979 0l0 715.995 88.0058 0 0 -715.995 -88.0058 0z"
   id="glyph44" />
   <glyph
   unicode="i"
   horiz-adv-x="222"
   d="M66.0009 615.999l0 99.9958 88.0058 0 0 -99.9958 -88.0058 0zm0 -615.999l0 518.994 88.0058 0 0 -518.994 -88.0058 0z"
   id="glyph46" />
  </font>
</defs>
</svg>
